+ ShareSpark.net »  :::: Bollywood Zone » Indian PC Videos
|- Thugs Of Hindostan (2018) Hindi 1080p Untouched BluRay Video Song ~ Ranvijay


Amazon Fashion

Thugs Of Hindostan (2018) Hindi 1080p Untouched BluRay Video Song ~ Ranvijay

0 Members and 1 Guest are viewing this topic.

January 17, 2019, 09:25:19 PM
  • Global Moderator
  • Legend Member
  • *****
  • Topic Author
  • Thank You: 11906
  • Reputation: 2417
  • Activity:
    100%
  • Country: in
  • Posts: 5645
  • Topics: 4627
  • Join Date: Jan 2014
  • ıllıllı ѕмoĸιng ιѕ good ғor нealтн ıllıllı :)


Thugs Of Hindostan (2018) Hindi 1080p Untouched BluRay Video Song ~ Ranvijay

Quote

Format                                   : Matroska
Format version                           : Version 4
File size                                : 1 003 MiB
Duration                                 : 4 min 30 s
Overall bit rate mode                    : Variable
Overall bit rate                         : 31.2 Mb/s
Encoded date                             : UTC 2019-01-17 11:11:38
Writing application                      : mkvmerge v8.2.0 ('World of Adventure') 32bit
Writing library                          : libebml v1.3.1 + libmatroska v1.4.2

Video
ID                                       : 1
Format                                   : AVC
Format/Info                              : Advanced Video Codec
Format profile                           : [email protected]
Format settings                          : 4 Ref Frames
Format settings, CABAC                   : No
Format settings, RefFrames               : 4 frames
Codec ID                                 : V_MPEG4/ISO/AVC
Duration                                 : 4 min 30 s
Bit rate mode                            : Variable
Bit rate                                 : 27.0 Mb/s
Maximum bit rate                         : 40.0 Mb/s
Width                                    : 1 920 pixels
Height                                   : 1 080 pixels
Display aspect ratio                     : 16:9
Frame rate mode                          : Constant
Frame rate                               : 24.000 FPS
Color space                              : YUV
Chroma subsampling                       : 4:2:0
Bit depth                                : 8 bits
Scan type                                : Progressive
Bits/(Pixel*Frame)                       : 0.542
Stream size                              : 868 MiB (87%)
Default                                  : Yes
Forced                                   : No

Audio
ID                                       : 2
Format                                   : MLP FBA 16-ch
Format/Info                              : Meridian Lossless Packing FBA with 16-channel presentation
Commercial name                          : Dolby TrueHD with Dolby Atmos
Codec ID                                 : A_TRUEHD
Duration                                 : 4 min 29 s
Bit rate mode                            : Variable
Bit rate                                 : 4 123 kb/s
Maximum bit rate                         : 6 912 kb/s
Channel(s)                               : 8 channels
Channel layout                           : L R C LFE Ls Rs Lb Rb
Sampling rate                            : 48.0 kHz
Frame rate                               : 1 200.000 FPS (40 SPF)
Compression mode                         : Lossless
Stream size                              : 133 MiB (13%)
Language                                 : Hindi
Default                                  : Yes
Forced                                   : No
Number of dynamic objects                : 15
Bed channel count                        : 1 channel
Bed channel configuration                : LFE

Text #1
ID                                       : 3
Format                                   : PGS
Muxing mode                              : zlib
Codec ID                                 : S_HDMV/PGS
Codec ID/Info                            : Picture based subtitle format used on BDs/HD-DVDs
Duration                                 : 2 min 48 s
Bit rate                                 : 13.3 kb/s
Count of elements                        : 72
Stream size                              : 273 KiB (0%)
Language                                 : English
Default                                  : Yes
Forced                                   : No

Text #2
ID                                       : 4
Format                                   : PGS
Muxing mode                              : zlib
Codec ID                                 : S_HDMV/PGS
Codec ID/Info                            : Picture based subtitle format used on BDs/HD-DVDs
Bit rate                                 : 0 b/s
Count of elements                        : 0
Stream size                              : 0.00 Byte (0%)
Language                                 : Hindi
Default                                  : No
Forced                                   : No








:download:

Quote



File Leeched & Uploaded From




Don't walk as you are king, walk as you don't care who the king is....!!
Never argue with an idiot. They drag you down to their level and then beat you with experience?

Share this topic on FacebookShare this topic on GoogleShare this topic on MySpaceShare this topic on TwitterShare this topic on Yahoo




Don't walk as you are king, walk as you don't care who the king is....!!

Thanks given by:


January 17, 2019, 09:29:50 PM
Reply #1

January 17, 2019, 11:46:46 PM
Reply #2
  • Semi Newbie
  • **
  • Thank You: 0
  • Reputation: 0
  • Activity:
    1.4%
  • Country: at
  • Posts: 7
  • Topics: 0
  • Join Date: Jan 2018
  • ShareSpark Member

January 18, 2019, 12:12:16 AM
Reply #3
  • Conqueror
  • Elite Forces
  • *****
  • Thank You: 493
  • Reputation: 185
  • Activity:
    6%
  • Country: in
  • Posts: 1139
  • Topics: 490
  • Join Date: Oct 2015
  • Hit ThanX Button 🔳 N Repute Button 🔳
Hit Thnx Button 🔳 N + Repute Button 🔳 Always Appreciate UploadeR 🤗 GiVe Respect GeT Respect :yu:

January 18, 2019, 08:20:11 PM
Reply #4
  • Elite Forces
  • ****
  • Thank You: 118
  • Reputation: 78
  • Activity:
    3.4%
  • Country: pk
  • Posts: 1161
  • Topics: 326
  • Join Date: Sep 2012
  • ShareSpark Member

Tags:
 

Related Topics





Back to top